img image001 image001 image001 image001 image001 image001 image001 image001 image001 image001 image001 image001 image001 image001 image001 image001

Planets Sun Sun Sun
Статистика раздачи
Автор: Снежана | Размер: 3.27 ГБ | Добавлен: 09 мар 2018
Раздают: 51    Качают: 0
Скачать торрент
Скачать торрент
Описание торрента

СообщениеДобавлено: 09 мар 2018 

Миропорядок-2018 (Эфир от 07.03.2018)
Оценка релиза: 
Перевод: Не требуется, cубтитры: отсутствуют
Формат: WEB-DL 1080p, MKV, H.264, AAC
Страна: Россия
Режиссер: Саида Медведева, Михаил Черваков
Жанр: документальный, политика
Продолжительность: 01:32:46
Год выпуска: 2018
В ролях: Владимир Путин, Владимир Соловьев

Описание: Фильм основан на нескольких эксклюзивных интервью Владимира Путина журналисту. Съемочная группа в дальних и ближних командировках снимала президента в работе, в окружении самых разных людей – союзников и оппонентов, политиков и дипломатов. Рукопожатия, встречи один на один и в расширенном составе, перелеты, пресс-конференции... Каким трудом дается каждый шаг к взаимопониманию? В комментарии Соловьев написал, что готовил этот фильм более года. По его словам, это был честный прямой разговор.

Из фильма Владимир Путин: «Если посмотреть на тенденции развития в мире, то лучше бы Россию иметь в качестве союзника. Мы - великая держава! Конкурентов никто не любит, конкурентов надо сдерживать, но я думаю, что вдолгую мы все равно выиграем. Мало, конечно, кто ожидал, что мы будем действовать так быстро, так решительно, если не сказать, дерзко. Есть очень хорошие маяки. Этот маяк - интересы Российской Федерации и её народа»


Видео: 1920x1080 (16:9), 25 fps, AVC MPEG-4 (High@L4) ~4799 kbps, 0.09 bit/pixel
Аудио: 44.1 kHz, AAC, 2 ch, ~250 kbps


General
Unique ID : 8005786413859962924521700201764563924 (0x605DBBEADD9640F699EA2188A9D2BD4)
Complete name : D:Миропорядок 2018.mkv
Format : Matroska
Format version : Version 4 / Version 2
File size : 3.27 GiB
Duration : 1 h 32 min
Overall bit rate mode : Variable
Overall bit rate : 5 052 kb/s
Encoded date : UTC 2018-03-07 23:01:21
Writing application : mkvmerge v21.0.0 ('Tardigrades Will Inherit The Earth') 64-bit
Writing library : libebml v1.3.5 + libmatroska v1.4.8
Cover : Yes
Attachments : cover.png

Video
ID : 1
Format : AVC
Format/Info : Advanced Video Codec
Format profile : High@L4
Format settings : CABAC / 4 Ref Frames
Format settings, CABAC : Yes
Format settings, RefFrames : 4 frames
Codec ID : V_MPEG4/ISO/AVC
Duration : 1 h 32 min
Bit rate mode : Variable
Bit rate : 4 799 kb/s
Maximum bit rate : 14.6 Mb/s
Width : 1 920 pixels
Height : 1 080 pixels
Display aspect ratio : 16:9
Frame rate mode : Constant
Frame rate : 25.000 FPS
Color space : YUV
Chroma subsampling : 4:2:0
Bit depth : 8 bits
Scan type : Progressive
Bits/(Pixel*Frame) : 0.093
Stream size : 3.11 GiB (95%)
Language : Russian
Default : Yes
Forced : No

Audio
ID : 2
Format : AAC
Format/Info : Advanced Audio Codec
Format profile : LC
Codec ID : A_AAC-2
Duration : 1 h 32 min
Bit rate : 250 kb/s
Channel(s) : 2 channels
Channel positions : Front: L R
Sampling rate : 44.1 kHz
Frame rate : 43.066 FPS (1024 SPF)
Compression mode : Lossy
Stream size : 166 MiB (5%)
Language : Russian
Default : Yes
Forced : No
Отвечая на вопрос журналиста о введении санкций после воссоединения России и Крыма, Путин сказал, что не сомневался в том, что они будут введены.

"Непонятно было, в какой форме это будет сделано, но, принимая эти решения, я, конечно, на чашу весов должен был положить возвращение Крыма и возможные последствия, связанные с нашими отношениями со многими странами мира", — подчеркнул президент.

По словам Путина, "кто-то сознательно подвел нас к такой черте, оказавшись на которой, мы должны были действовать так, как мы действовали". Президент считает, что никто не ожидал, что Россия будет действовать "так быстро, так решительно, если не сказать дерзко". "Я думаю, что в долгую мы все равно выиграем", — сказал Путин.

Президент подчеркнул, что Россия – великая держава. По его мнению, если "посмотреть на тенденции развития в мире, то лучше бы Россию иметь в качестве союзника". Также он уверен в том, что страны, ведущие антироссийскую политику, пострадают от своих действий. Он советует "выстраивать отношения с Россией".

"Те, кто капают куда-то яд, сами и проглотят его в конце концов, сами этим ядом отравятся", — сказал глава государства.











   Похожие торренты   Торрент   Размер 
В этой теме нет новых непрочитанных сообщений. Миропорядок 2018 (Эфир от 07.03.2018) [2018, документальный, SATRip]

101 | 0

1.26 ГБ

В этой теме нет новых непрочитанных сообщений. Специальный репортаж. Олимпийская политика (Эфир от 12.02.2018) (ТК ТВЦ) [2018, документальный, SATRip]

4 | 0

357.98 МБ

В этой теме нет новых непрочитанных сообщений. Интервью Владимира Путина телеканалу NBC (Эфир от 10.03.2018)[2018, документальный, политика, WEB-DL 720p]

3 | 0

1.94 ГБ

В этой теме нет новых непрочитанных сообщений. Обложка. Скандалы с прислугой (Эфир от 10.05.2018) (ТВЦ) [2018, документальный, биография, политика, SATRip]

4 | 0

365.84 МБ

В этой теме нет новых непрочитанных сообщений. Обложка. Гарри женится (Эфир от 22.03.2018) (ТВЦ) [2018, документальный, биография, политика, SATRip]

2 | 0

359.36 МБ

В этой теме нет новых непрочитанных сообщений. Специальный репортаж. Ядовитая политика Запада (Эфир от 28.03.2018) [2018, документальный, SATRip]

8 | 0

238.89 МБ

В этой теме нет новых непрочитанных сообщений. Специальный репортаж. А слуги кто? Новая политика Трампа (Эфир от 06.06.2018) [2018, документальный, SATRip]

6 | 0

254.69 МБ




Вы не можете начинать темы
Вы не можете отвечать на сообщения
Вы не можете редактировать свои сообщения
Вы не можете удалять свои сообщения
Вы не можете добавлять вложения

Перейти:  
 Вход
ppkBB3cker v.2 © 2008-2014 @ PPK
[ Time : 0.027s | 16 Queries | GZIP : Off ]

cron