img image001 image001 image001 image001 image001 image001 image001 image001 image001 image001 image001 image001 image001 image001 image001 image001

Planets Sun Sun Sun
Статистика раздачи
Автор: Снежана | Размер: 248.96 МБ | Добавлен: 07 мар 2018
Раздают: 4    Качают: 0
Скачать торрент
Скачать торрент
Описание торрента

СообщениеДобавлено: 07 мар 2018 

Зеро / Zero


Перевод: Авторский (одноголосый), субтитры: отсутствуют
Формат: WEBRip-AVC, MKV, H.264, MP3
Страна: США
Режиссер: Гарри Баст
Жанр: ужасы
Продолжительность: 00:22:42
Год выпуска: 2016
В ролях: Хлоя Аддискотт, Сэм Хардинг, Дженна Харриес, Дэн Дженкинс, Робин Осборн, Грант Рассел, Росс Шаддик, Франк Томас
Описание: Как вы сохраните свою человечность, когда человечество погибло? Спустя много лет после конца света, зомби озверели от голода. Небольшая группа выживших людей пытается спасти себя в этом жутком мире.


Рейтинг на kinopoisk.ru : отсутствует

Видео: 1280x720 (2.40:1), 24,000 fps, ~1309 kbps avg, 0.059 bit/pixel
Аудио: 44.100 kHz, MPEG Layer 3, 2 ch, ~192.00 kbps avg







медиа инфо

Complete name : C:\Zero - A Zombie Short Film.mkv
Format : Matroska
Format version : Version 4 / Version 2
File size : 249 MiB
Duration : 22mn 43s
Overall bit rate : 1 531 Kbps
Encoded date : UTC 2018-03-07 14:58:41
Writing application : mkvmerge v8.3.0 ('Over the Horizon') 64bit
Writing library : libebml v1.3.1 + libmatroska v1.4.2
DURATION : 00:22:43.722000000
NUMBER_OF_FRAMES : 52205
NUMBER_OF_BYTES : 32729339
_STATISTICS_WRITING_APP : mkvmerge v8.3.0 ('Over the Horizon') 64bit
_STATISTICS_WRITING_DATE_UTC : 2018-03-07 14:58:41
_STATISTICS_TAGS : BPS DURATION NUMBER_OF_FRAMES NUMBER_OF_BYTES

Video
ID : 1
Format : AVC
Format/Info : Advanced Video Codec
Format profile :
Format settings, CABAC : Yes
Format settings, ReFrames : 3 frames
Codec ID : V_MPEG4/ISO/AVC
Duration : 22mn 43s
Bit rate : 1 309 Kbps
Width : 1 280 pixels
Height : 720 pixels
Display aspect ratio : 16:9
Frame rate mode : Constant
Frame rate : 24.000 fps
Color space : YUV
Chroma subsampling : 4:2:0
Bit depth : 8 bits
Scan type : Progressive
Bits/(Pixel*Frame) : 0.059
Stream size : 213 MiB (85%)
Default : Yes
Forced : No
Color primaries : BT.709
Transfer characteristics : BT.709
Matrix coefficients : BT.709

Audio
ID : 2
Format : MPEG Audio
Format version : Version 1
Format profile : Layer 3
Codec ID : A_MPEG/L3
Codec ID/Hint : MP3
Duration : 22mn 43s
Bit rate mode : Constant
Bit rate : 192 Kbps
Channel(s) : 2 channels
Sampling rate : 44.1 KHz
Compression mode : Lossy
Stream size : 31.2 MiB (13%)
Default : Yes
Forced : No



   Похожие торренты   Торрент   Размер 
В этой теме нет новых непрочитанных сообщений. Семена / Nasiona / Semillas / The Seeds (Войцех Касперский) [2006, документальный, короткометражный, WEBRip]

5 | 0

315.72 МБ

В этой теме нет новых непрочитанных сообщений. Перед словами / Antes de Palavras / Before Words (Диего Карвальо Са / Diego Carvalho Sa) [2013, мелодрама, короткометражный, WEBRip-AVC] VO

9 | 0

132.53 МБ

В этой теме нет новых непрочитанных сообщений. Фантом Убийства: Восстание Зеро / Phantom of the Kill: Zero's Rebellion [Movie] (2016) WEBRip 1080p | DeadLine Studio

27 | 3

301.77 МБ

В этой теме нет новых непрочитанных сообщений. Экстро / Пришелец / Xtro (Гарри Бромли Девенпорт) [1982, ужасы, фантастика, DVDRip-AVC] AVO

2 | 0

744.42 МБ

В этой теме нет новых непрочитанных сообщений. Ужасы интернета / Bad Internet [S01] (2016) WEBRip 720p | L2

0 | 0

1.69 ГБ

В этой теме нет новых непрочитанных сообщений. Лес призраков / The Forest (Джейсон Зада) [2016, Ужасы, WEBRip] DUB

2780 | 118

1.36 ГБ

В этой теме нет новых непрочитанных сообщений. Ужасы интернета / Bad Internet [01x01-06 из 10] (2016) WEBRip 720p от OZZ | P2

1107 | 5

1.09 ГБ




Вы не можете начинать темы
Вы не можете отвечать на сообщения
Вы не можете редактировать свои сообщения
Вы не можете удалять свои сообщения
Вы не можете добавлять вложения

Перейти:  
 Вход
ppkBB3cker v.2 © 2008-2014 @ PPK
[ Time : 0.037s | 16 Queries | GZIP : Off ]

cron