img image001 image001 image001 image001 image001 image001 image001 image001 image001 image001 image001 image001 image001 image001 image001 image001

Planets Sun Sun Sun
Статистика раздачи
Автор: Снежана | Размер: 2.98 ГБ | Добавлен: 07 мар 2018
Раздают: 70    Качают: 5
Скачать торрент
Скачать торрент
Описание торрента

СообщениеДобавлено: 07 мар 2018 

Форма воды / The Shape of Water

Перевод: Профессиональный (полное дублирование) iTunes
Субтитры: Русские, английские
Формат: BDRip, MKV, H.264, AC3
Страна: Канада, США
Режиссер: Гильермо дель Торо
Жанр: фэнтези, драма
Продолжительность: 02:03:19
Год выпуска: 2017

В ролях: Салли Хокинс, Майкл Шеннон, Ричард Дженкинс, Октавия Спенсер, Майкл Стулбарг, Даг Джонс, Дэвид Хьюлетт, Ник Сирси, Стюарт Арнотт, Найджел Беннетт

Описание: Действие разворачивается в 1963 году. Главная героиня — немая уборщица в научной лаборатории. В стенах секретного учреждения идёт работа по изучению отловленного человека-амфибии. Женщина влюбляется в мутанта и помогает ему бежать...



Видео: 1152x624 (1.85:1), 23.976 fps, AVC MPEG-4 (H.264), ~2558 kbps, 0.148 bit/pixel
Аудио #1: Русский: 48 kHz, AC3 Dolby Digital, 6 ch, ~384 kbps [Профессиональный (полное дублирование)]
Аудио #2: Английский:48 kHz, AC3 Dolby Digital, 6 ch, ~448 kbps [Оригинал]

Доп. информация: 4 премии "Оскар", 9 номинаций.
Формат : Matroska
Версия формата : Version 4 / Version 2
Размер файла : 2,98 Гбайт
Продолжительность : 2 ч. 3 м.
Общий поток : 3459 Кбит/сек
Название фильма : [The_Shape_of_Water_2017_All Films_by Dalemake]
Дата кодирования : UTC 2018-03-06 21:09:09
Программа кодирования : mkvmerge v7.8.0 ('River Man') 32bit built on Apr 3 2015 12:11:22
Библиотека кодирования : libebml v1.3.1 + libmatroska v1.4.2
DURATION : 02:03:05.979000000
NUMBER_OF_FRAMES : 1807
NUMBER_OF_BYTES : 46794
_STATISTICS_WRITING_APP : mkvmerge v7.8.0 ('River Man') 32bit built on Apr 3 2015 12:11:22
_STATISTICS_WRITING_DATE_UTC : 2018-03-06 21:09:09
_STATISTICS_TAGS : BPS DURATION NUMBER_OF_FRAMES NUMBER_OF_BYTES

Видео
Идентификатор : 1
Формат : AVC
Формат/Информация : Advanced Video Codec
Профиль формата :
Параметр CABAC формата : Да
Параметр ReFrames формата : 12 кадров
Идентификатор кодека : V_MPEG4/ISO/AVC
Продолжительность : 2 ч. 3 м.
Битрейт : 2558 Кбит/сек
Ширина : 1152 пикселя
Высота : 624 пикселя
Соотношение сторон : 1,85:1
Частота кадров : 23,976 кадра/сек
Цветовое пространство : YUV
Субдискретизация насыщенности : 4:2:0
Битовая глубина : 8 бит
Тип развёртки : Прогрессивная
Бит/(Пиксели*Кадры) : 0.148
Размер потока : 2,20 Гбайт (74%)
Заголовок : [The_Shape_of_Water_2017_All Films_by Dalemake]
Библиотека кодирования : x264 core 152 r2851kMod ba24899
Настройки программы : cabac=1 / ref=12 / deblock=1:-3:-2 / analyse=0x3:0x133 / me=umh / subme=11 / psy=1 / fade_compensate=0.00 / psy_rd=1.00:0.00 / mixed_ref=1 / me_range=48 / chroma_me=1 / trellis=2 / 8x8dct=1 / cqm=0 / deadzone=21,11 / fast_pskip=1 / chroma_qp_offset=-4 / threads=6 / lookahead_threads=1 / sliced_threads=0 / nr=0 / decimate=0 / interlaced=0 / bluray_compat=0 / constrained_intra=0 / bframes=11 / b_pyramid=2 / b_adapt=2 / b_bias=0 / direct=1 / weightb=1 / open_gop=0 / weightp=2 / keyint=240 / keyint_min=23 / scenecut=40 / intra_refresh=0 / rc_lookahead=60 / rc=crf / mbtree=0 / crf=17.8000 / qcomp=0.60 / qpmin=0 / qpmax=69 / qpstep=4 / vbv_maxrate=50000 / vbv_bufsize=62500 / crf_max=0.0 / nal_hrd=none / filler=0 / ip_ratio=1.40 / pb_ratio=1.35 / aq=1:1.00
Язык : English
Default : Да
Forced : Нет
DURATION : 02:03:19.404000000
NUMBER_OF_FRAMES : 177408
NUMBER_OF_BYTES : 2427774509
_STATISTICS_WRITING_APP : mkvmerge v7.8.0 ('River Man') 32bit built on Apr 3 2015 12:11:22
_STATISTICS_WRITING_DATE_UTC : 2018-03-06 21:09:09
_STATISTICS_TAGS : BPS DURATION NUMBER_OF_FRAMES NUMBER_OF_BYTES

Аудио #1
Идентификатор : 2
Формат : AC-3
Формат/Информация : Audio Coding 3
Расширение режима : CM (complete main)
Параметр Endianness формата : Big
Идентификатор кодека : A_AC3
Продолжительность : 2 ч. 3 м.
Вид битрейта : Постоянный
Битрейт : 384 Кбит/сек
Каналы : 6 каналов
Расположение каналов : Front: L C R, Side: L R, LFE
Частота : 48,0 КГц
Битовая глубина : 16 бит
Метод сжатия : С потерями
Размер потока : 339 Мбайт (11%)
Заголовок : Dub - iTunes Russia
Язык : Russian
Default : Да
Forced : Нет

Аудио #2
Идентификатор : 3
Формат : AC-3
Формат/Информация : Audio Coding 3
Расширение режима : CM (complete main)
Параметр Endianness формата : Big
Идентификатор кодека : A_AC3
Продолжительность : 2 ч. 3 м.
Вид битрейта : Постоянный
Битрейт : 448 Кбит/сек
Каналы : 6 каналов
Расположение каналов : Front: L C R, Side: L R, LFE
Частота : 48,0 КГц
Битовая глубина : 16 бит
Метод сжатия : С потерями
Размер потока : 395 Мбайт (13%)
Заголовок : Original
Язык : English
Default : Нет
Forced : Нет

Текст #1
Идентификатор : 4
Формат : UTF-8
Идентификатор кодека : S_TEXT/UTF8
Идентификатор кодека/Информация : UTF-8 Plain Text
Заголовок : Forced
Язык : Russian
Default : Да
Forced : Да

Текст #2
Идентификатор : 5
Формат : UTF-8
Идентификатор кодека : S_TEXT/UTF8
Идентификатор кодека/Информация : UTF-8 Plain Text
Заголовок : Full
Язык : Russian
Default : Нет
Forced : Нет

Текст #3
Идентификатор : 6
Формат : UTF-8
Идентификатор кодека : S_TEXT/UTF8
Идентификатор кодека/Информация : UTF-8 Plain Text
Заголовок : Forced
Язык : English
Default : Нет
Forced : Нет

Текст #4
Идентификатор : 7
Формат : UTF-8
Идентификатор кодека : S_TEXT/UTF8
Идентификатор кодека/Информация : UTF-8 Plain Text
Заголовок : Full
Язык : English
Default : Нет
Forced : Нет

Меню
00:00:00.000 : en:Chapter 01
00:06:24.467 : en:Chapter 02
00:12:54.774 : en:Chapter 03
00:18:32.986 : en:Chapter 04
00:23:45.590 : en:Chapter 05
00:29:39.652 : en:Chapter 06
00:35:29.836 : en:Chapter 07
00:39:30.534 : en:Chapter 08
00:42:42.434 : en:Chapter 09
00:48:34.036 : en:Chapter 10
00:52:26.935 : en:Chapter 11
00:57:30.196 : en:Chapter 12
01:01:52.542 : en:Chapter 13
01:07:35.551 : en:Chapter 14
01:12:13.495 : en:Chapter 15
01:17:50.791 : en:Chapter 16
01:21:17.122 : en:Chapter 17
01:26:05.910 : en:Chapter 18
01:32:48.479 : en:Chapter 19
01:37:18.749 : en:Chapter 20
01:43:24.114 : en:Chapter 21
01:46:06.610 : en:Chapter 22
01:50:31.666 : en:Chapter 23
01:58:34.857 : en:Chapter 24












   Похожие торренты   Торрент   Размер 
В этой теме нет новых непрочитанных сообщений. Форма воды / The Shape of Water (Гильермо дель Торо) [2017, фэнтези, драма, BDRip-AVC] DUB

44 | 4

1.4 ГБ

В этой теме нет новых непрочитанных сообщений. Форма воды / The Shape of Water (Гильермо дель Торо) [2017, фэнтези, драма, BDRip] AVO

5 | 0

2.06 ГБ

В этой теме нет новых непрочитанных сообщений. Форма воды / The Shape of Water (Гильермо дель Торо) [2017, фэнтези, драма, BDRip] DUB

1988 | 31

1.46 ГБ

В этой теме нет новых непрочитанных сообщений. Форма воды / The Shape of Water (Гильермо дель Торо) [2017, фэнтези, драма, BDRip-AVC] DVO

31 | 6

2.13 ГБ

В этой теме нет новых непрочитанных сообщений. Форма воды / The Shape of Water (Гильермо дель Торо) [2017, фэнтези, драма, BDRip] DUB

292 | 7

2.13 ГБ

В этой теме нет новых непрочитанных сообщений. Форма воды / The Shape of Water (Гильермо дель Торо) [2017, фэнтези, драма, BDRip] DUB / Фантастика

120 | 4

1.46 ГБ

В этой теме нет новых непрочитанных сообщений. Форма воды / The Shape of Water (Гильермо дель Торо) [2017, фэнтези, драма, BDRip] DUB / Фантастика

73 | 6

2.18 ГБ




Вы не можете начинать темы
Вы не можете отвечать на сообщения
Вы не можете редактировать свои сообщения
Вы не можете удалять свои сообщения
Вы не можете добавлять вложения

Перейти:  
 Вход
ppkBB3cker v.2 © 2008-2014 @ PPK
[ Time : 0.031s | 18 Queries | GZIP : Off ]

cron